osu file format v14

[General]
AudioFilename: Sharlo - START-DASH!!.mp3
AudioLeadIn: 1500
PreviewTime: 62985
Countdown: 0
SampleSet: None
StackLeniency: 0.7
Mode: 3
LetterboxInBreaks: 0
WidescreenStoryboard: 1

[Editor]
DistanceSpacing: 0.6
BeatDivisor: 4
GridSize: 32
TimelineZoom: 1.6

[Metadata]
Title:START:DASH!!
TitleUnicode:START:DASH!!
Artist:Sharlo
ArtistUnicode:Sharlo
Creator:Pikachi-
Version:sherrysina's EZ
Source:Love Live! School idol project
Tags:u's muse ラブライブ!lovelive Sherrysina -Bangke-
BeatmapID:758609
BeatmapSetID:343253

[Difficulty]
HPDrainRate:6
CircleSize:4
OverallDifficulty:7
ApproachRate:5
SliderMultiplier:1.4
SliderTickRate:1

[Events]
//Background and Video events
0,0,"Love Live! School Idol Project - 03 - 01.jpg",0,0
//Break Periods
//Storyboard Layer 0 (Background)
//Storyboard Layer 1 (Fail)
//Storyboard Layer 2 (Pass)
//Storyboard Layer 3 (Foreground)
//Storyboard Sound Samples

[TimingPoints]
-715,400,4,2,1,20,1,0
63285,-100,4,2,1,20,0,1
75285,-100,4,2,1,20,0,0
92085,-100,4,2,1,20,0,0

[HitObjects]
320,192,885,5,0,0:0:0:0:
192,192,1485,1,0,0:0:0:0:
64,192,2485,1,0,0:0:0:0:
448,192,3085,1,0,0:0:0:0:
320,192,4085,1,0,0:0:0:0:
192,192,4685,1,0,0:0:0:0:
64,192,5485,1,0,0:0:0:0:
320,192,5885,1,0,0:0:0:20:soft-hitclap.wav
320,192,6485,1,0,0:0:0:20:soft-hitclap.wav
320,192,7285,1,0,0:0:0:0:
64,192,7685,1,0,0:0:0:20:soft-hitclap88.wav
448,192,8485,1,0,0:0:0:20:soft-hitclap88.wav
192,192,9285,1,0,0:0:0:20:soft-hitclap88.wav
64,192,10085,1,0,0:0:0:20:soft-hitclap88.wav
320,192,10485,1,0,0:0:0:0:
448,192,10885,1,0,0:0:0:20:soft-hitclap88.wav
64,192,11685,1,0,0:0:0:20:soft-hitclap88.wav
448,192,12485,1,0,0:0:0:20:soft-hitclap88.wav
320,192,13285,1,0,0:0:0:20:soft-hitclap88.wav
192,192,14085,1,0,0:0:0:20:soft-hitclap88.wav
64,192,14885,1,0,0:0:0:20:soft-hitclap88.wav
448,192,15285,1,0,0:0:0:0:
192,192,15685,1,0,0:0:0:20:soft-hitclap88.wav
448,192,16485,1,0,0:0:0:20:soft-hitclap88.wav
320,192,17285,1,0,0:0:0:20:soft-hitclap88.wav
192,192,18085,1,0,0:0:0:20:soft-hitclap88.wav
64,192,18885,1,0,0:0:0:20:soft-hitclap88.wav
320,192,19285,1,0,0:0:0:0:
448,192,19685,1,0,0:0:0:20:soft-hitclap88.wav
192,192,20085,1,0,0:0:0:0:
448,192,21285,1,0,0:0:0:20:soft-hitclap88.wav
192,192,22885,1,0,0:0:0:0:
64,192,23285,1,0,0:0:0:0:
448,192,24485,1,0,0:0:0:20:soft-hitclap88.wav
320,192,26085,1,0,0:0:0:0:
192,192,26485,1,0,0:0:0:0:
448,192,27685,1,0,0:0:0:20:soft-hitclap88.wav
320,192,29285,1,0,0:0:0:0:
192,192,29685,1,0,0:0:0:0:
64,192,30885,1,0,0:0:0:20:soft-hitclap88.wav
320,192,32485,1,0,0:0:0:0:
448,192,32885,1,0,0:0:0:0:
320,192,33885,1,0,0:0:0:20:soft-hitclap88.wav
192,192,34085,1,0,0:0:0:20:soft-hitclap88.wav
64,192,34885,1,0,0:0:0:10:normal-hitclap88.wav
320,192,34885,1,0,0:0:0:10:normal-hitclap88.wav
448,192,35285,1,0,0:0:0:10:normal-hitclap88.wav
192,192,35285,1,0,0:0:0:10:normal-hitclap88.wav
320,192,36085,1,0,0:0:0:0:
64,192,36485,1,0,0:0:0:20:soft-hitclap88.wav
448,192,37285,1,0,0:0:0:20:soft-hitclap88.wav
320,192,37685,1,0,0:0:0:0:
192,192,38085,1,0,0:0:0:20:soft-hitclap88.wav
64,192,38885,1,0,0:0:0:20:soft-hitclap88.wav
448,192,39685,1,0,0:0:0:20:soft-hitclap88.wav
192,192,40485,1,0,0:0:0:20:soft-hitclap88.wav
64,192,41285,1,0,0:0:0:20:soft-hitclap88.wav
320,192,42085,1,0,0:0:0:20:soft-hitclap88.wav
448,192,42485,1,0,0:0:0:0:
192,192,42885,1,0,0:0:0:20:soft-hitclap88.wav
320,192,43685,1,0,0:0:0:20:soft-hitclap88.wav
64,192,44485,1,0,0:0:0:20:soft-hitclap88.wav
192,192,45285,1,0,0:0:0:20:soft-hitclap88.wav
448,192,45685,1,0,0:0:0:20:normal-hitclap88.wav
320,192,46285,1,0,0:0:0:20:normal-hitclap88.wav
192,192,47085,1,0,0:0:0:20:normal-hitclap88.wav
64,192,47685,1,0,0:0:0:20:soft-hitclap88.wav
448,192,48085,1,0,0:0:0:20:soft-hitclap88.wav
320,192,48485,1,0,0:0:0:0:
192,192,48885,1,0,0:0:0:0:
448,192,49685,1,0,0:0:0:20:soft-hitclap88.wav
192,192,50485,1,0,0:0:0:0:
64,192,51285,1,0,0:0:0:20:soft-hitclap88.wav
320,192,52085,1,0,0:0:0:0:
448,192,52885,1,0,0:0:0:20:soft-hitclap88.wav
320,192,53685,1,0,0:0:0:0:
192,192,54485,1,0,0:0:0:20:soft-hitclap88.wav
448,192,54885,1,0,0:0:0:0:
320,192,55285,1,0,0:0:0:0:
64,192,55685,1,0,0:0:0:20:soft-hitclap88.wav
192,192,56485,1,0,0:0:0:20:soft-hitclap88.wav
320,192,57285,1,0,0:0:0:20:soft-hitclap88.wav
448,192,58085,1,0,0:0:0:20:soft-hitclap88.wav
192,192,58485,1,0,0:0:0:0:
64,192,58885,1,0,0:0:0:20:soft-hitclap88.wav
320,192,59685,1,0,0:0:0:20:soft-hitclap88.wav
192,192,60485,1,0,0:0:0:20:soft-hitclap88.wav
448,192,61485,1,0,0:0:0:20:soft-hitclap88.wav
320,192,63285,1,0,0:0:0:0:
64,192,63685,1,0,0:0:0:20:soft-hitclap88.wav
192,192,64085,1,0,0:0:0:0:
448,192,64885,1,0,0:0:0:0:
320,192,65285,1,0,0:0:0:20:soft-hitclap88.wav
192,192,65685,1,0,0:0:0:0:
64,192,66485,1,0,0:0:0:0:
192,192,66885,1,0,0:0:0:20:soft-hitclap88.wav
320,192,67285,1,0,0:0:0:0:
320,192,68085,1,0,0:0:0:0:
192,192,68485,1,0,0:0:0:20:soft-hitclap88.wav
448,192,68885,1,0,0:0:0:0:
448,192,69685,1,0,0:0:0:0:
192,192,70085,1,0,0:0:0:20:soft-hitclap88.wav
64,192,70485,1,0,0:0:0:0:
192,192,71285,1,0,0:0:0:0:
320,192,71685,1,0,0:0:0:20:soft-hitclap88.wav
448,192,72085,1,0,0:0:0:0:
64,192,72885,1,0,0:0:0:0:
320,192,73285,1,0,0:0:0:20:soft-hitclap88.wav
448,192,73685,1,0,0:0:0:0:
320,192,74485,1,0,0:0:0:0:
192,192,74885,1,0,0:0:0:20:soft-hitclap88.wav
64,192,75285,1,0,0:0:0:0:
320,192,76085,1,0,0:0:0:0:
448,192,76485,1,0,0:0:0:20:soft-hitclap88.wav
192,192,76885,1,0,0:0:0:0:
64,192,77685,1,0,0:0:0:0:
320,192,78085,1,0,0:0:0:20:soft-hitclap88.wav
192,192,78485,1,0,0:0:0:0:
320,192,79285,1,0,0:0:0:0:
192,192,79685,1,0,0:0:0:20:soft-hitclap88.wav
64,192,80085,1,0,0:0:0:0:
448,192,80885,1,0,0:0:0:0:
320,192,81285,1,0,0:0:0:20:soft-hitclap88.wav
192,192,81685,1,0,0:0:0:0:
64,192,82485,1,0,0:0:0:0:
320,192,82885,1,0,0:0:0:20:soft-hitclap88.wav
448,192,83285,1,0,0:0:0:0:
320,192,84085,1,0,0:0:0:0:
192,192,84485,1,0,0:0:0:20:soft-hitclap88.wav
320,192,84885,1,0,0:0:0:0:
64,192,85685,1,0,0:0:0:0:
448,192,86085,1,0,0:0:0:20:soft-hitclap88.wav
64,192,86485,1,0,0:0:0:0:
320,192,87285,1,0,0:0:0:0:
192,192,87685,1,0,0:0:0:20:soft-hitclap88.wav
64,192,88085,1,0,0:0:0:0:
448,192,88885,1,0,0:0:0:0:
320,192,89285,1,0,0:0:0:20:soft-hitclap88.wav
192,192,89685,1,0,0:0:0:0:
320,192,90485,1,0,0:0:0:10:soft-hitclap88.wav
64,192,90485,1,0,0:0:0:10:normal-hitclap88.wav
448,192,92085,1,0,0:0:0:0:
320,192,92485,1,0,0:0:0:20:soft-hitclap88.wav
192,192,92885,1,0,0:0:0:0:
64,192,93285,1,0,0:0:0:20:soft-hitclap88.wav
448,192,93685,1,0,0:0:0:0:
320,192,94085,1,0,0:0:0:20:soft-hitclap88.wav
192,192,94485,1,0,0:0:0:0:
64,192,94885,1,0,0:0:0:20:soft-hitclap88.wav
192,192,95285,1,0,0:0:0:0:
320,192,95685,1,0,0:0:0:20:soft-hitclap88.wav
448,192,96085,1,0,0:0:0:0:
320,192,96485,1,0,0:0:0:20:soft-hitclap88.wav
192,192,96885,1,0,0:0:0:0:
448,192,97285,1,0,0:0:0:20:soft-hitclap88.wav
320,192,97685,1,0,0:0:0:0:
64,192,98085,1,0,0:0:0:20:soft-hitclap88.wav
192,192,98485,1,0,0:0:0:0:
448,192,98885,1,0,0:0:0:20:soft-hitclap88.wav
320,192,99285,1,0,0:0:0:0:
192,192,99685,1,0,0:0:0:20:soft-hitclap88.wav
64,192,100085,1,0,0:0:0:0:
192,192,100485,1,0,0:0:0:20:soft-hitclap88.wav
320,192,100885,1,0,0:0:0:0:
64,192,101285,1,0,0:0:0:20:soft-hitclap88.wav
448,192,101685,1,0,0:0:0:0:
192,192,102085,1,0,0:0:0:20:soft-hitclap88.wav
320,192,102485,1,0,0:0:0:0:
64,192,102885,1,0,0:0:0:20:soft-hitclap88.wav
192,192,103285,1,0,0:0:0:0:
64,192,103685,1,0,0:0:0:20:soft-hitclap88.wav
320,192,104085,1,0,0:0:0:0:
448,192,104485,1,0,0:0:0:20:soft-hitclap88.wav
320,192,104885,128,0,111285:0:0:0:0:
192,192,104885,128,0,111285:0:0:0:0:
